wenba

[WEB-1080P] [2012] [其他] [其他] 汤姆和他的朋友们 Tom.Und.Hacke.2012.GERMAN.1080p.AMZN.WEBRip.DDP2.0.x264-ETHiCS 6.34GB



帖子完整标题:汤姆和他的朋友们 Tom.Und.Hacke.2012.GERMAN.1080p.AMZN.WEBRip.DDP2.0.x264-ETHiCS 6.34GB




◎译  名 汤姆和他的朋友们 / Tom Sawyer and His Friends
◎片  名 Tom und Hacke
◎年  代 2012
◎产  地 德国
◎类  别 家庭 / 犯罪 / 冒险
◎语  言 德语
◎IMDb评分 6.5/10 from 76 users
◎IMDb链接 http://www.imdb.com/title/tt2200376
◎豆瓣评分 0/10 from 0 users
◎豆瓣链接 https://movie.douban.com/subject/10864304/
◎导  演 Norbert Lechner
◎主  演 Xaver-Maria Brenner
      Fritz Karl
      Franziska Weisz


◎标  签 德国电影 | 德国 | 儿童 | 已下

◎简  介

  战后德国,父母双亡的汤姆· 索亚和阿姨及表弟相依为命,他却把全家赖以生存的缝纫机弄坏了。在一次墓园冒险中,汤姆和他的好朋友哈克无意中目睹了黑市交易者艾米·乔为做烟酒生意而杀 人的全过程,两人发誓将永远保持沉默。乔诬陷无辜的马福勒为凶手,知道真相的汤姆陷入了矛盾。同样困扰汤姆的还有由他导致的家庭危机,眼看着食物殆尽,他 想到了一个主意:偷乔的香烟去换新的缝纫机。于是,汤姆和哈克以及汤姆心爱的女孩伯吉开始了一段冒险的旅程。
Video
ID : 1
Format : AVC
Format/Info : Advanced Video Codec
Format profile : [email?protected]
Format settings : CABAC / 4 Ref Frames
Format settings, CABAC : Yes
Format settings, Reference frames : 4 frames
Codec ID : V_MPEG4/ISO/AVC
Duration : 1 h 34 min
Bit rate mode : Constant
Bit rate : 9 413 kb/s
Nominal bit rate : 10 000 kb/s
Width : 1 920 pixels
Height : 800 pixels
Display aspect ratio : 2.40:1
Frame rate mode : Constant
Frame rate : 25.000 FPS
Color space : YUV
Chroma subsampling : 4:2:0
Bit depth : 8 bits
Scan type : Progressive
Bits/(Pixel*Frame) : 0.245
Stream size : 6.19 GiB (98%)
Language : English
Default : Yes
Forced : No
Color range : Limited
Color primaries : BT.709
Transfer characteristics : BT.709
Matrix coefficients : BT.709

Audio
ID : 2
Format : E-AC-3
Format/Info : Enhanced AC-3
Commercial name : Dolby Digital Plus
Codec ID : A_EAC3
Duration : 1 h 34 min
Bit rate mode : Constant
Bit rate : 224 kb/s
Channel(s) : 2 channels
Channel layout : L R
Sampling rate : 48.0 kHz
Frame rate : 31.250 FPS (1536 SPF)
Compression mode : Lossy
Stream size : 151 MiB (2%)
Language : German
Service kind : Complete Main
Default : Yes
Forced : No

Text
ID : 3
Format : UTF-8
Codec ID : S_TEXT/UTF8
Codec ID/Info : UTF-8 Plain Text
Duration : 1 h 28 min
Bit rate : 38 b/s
Count of elements : 736
Stream size : 24.7 KiB (0%)
Language : English
Default : Yes
Forced : No






1 个附件(点击附件名进行下载) 售价 大小 下载 时间

0 金币 32.26K 24 次 3小时前

#1楼
发帖时间:3小时前 ? | ? 查看数:0 ? | ? 回复数:0
游客组
快速回复